صفحه 3 از 3 نخستنخست 123
نمایش نتایج: از 21 به 22 از 22

موضوع: دانلود فیلم "بی تا 1351" - نسخه کامل تله 35 - DVD5 اصلی

  1. #21
    کاربر جدید
    تاریخ عضویت
    Jul 2017
    نوشته ها
    48
    تشکر
    396
    تشکر شده : 617
    نقل قول نوشته اصلی توسط Hadi نمایش پست ها
    همین تنگنا ویدئو مرکزی که داری همینم توی نت واسه دانلود نیست .
    اگه کیفیت اصلی وی سیدیه ک به نظرم کیفیتش خوبه تو این شات که فرستادی
    اینم اگه شد زحمتشو بکش مرسی دمت گرم
    این دیگه خیلی وضعش خرابه توی یوتیوب همین ویدئو مرکزی هست ولی اصلا هیچی معلوم نیست خیلی خرابه /
    مال تو خیلی بهتره
    راستش من اینو با فیلم بلوچ رو از یه سایت خارجی دانلود کردم.. کیفیت اصلیشو ندارم..اگه خواستی شب یک به بعد اپ میکنم واست
    الان حجم ندارم


    کد:
    Video
    ID                          : 0
    Format                      : MPEG-4 Visual
    Format profile              : Advanced Simple@L5
    Format settings             : BVOP1 / Custom Matrix
    Format settings, BVOP       : 1
    Format settings, QPel       : No
    Format settings, GMC        : No warppoints
    Format settings, Matrix     : Custom
    Codec ID                    : XVID
    Codec ID/Hint               : XviD
    Duration                    : 1 h 39 min
    Bit rate                    : 1 956 kb/s
    Width                       : 688 pixels
    Height                      : 512 pixels
    Display aspect ratio        : 4:3
    Frame rate                  : 25.000 FPS
    Color space                 : YUV
    Chroma subsampling          : 4:2:0
    Bit depth                   : 8 bits
    Scan type                   : Progressive
    Compression mode            : Lossy
    Bits/(Pixel*Frame)          : 0.222
    Stream size                 : 1.36 GiB (93%)
    Writing library             : XviD 1.2.1 (UTC 2008-12-04)
    
    
    Audio
    ID                          : 1
    Format                      : MPEG Audio
    Format version              : Version 1
    Format profile              : Layer 3
    Format settings             : Joint stereo
    Codec ID                    : 55
    Codec ID/Hint               : MP3
    Duration                    : 1 h 39 min
    Bit rate mode               : Variable
    Bit rate                    : 128 kb/s
    Nominal bit rate            : 160 kb/s
    Channel(s)                  : 2 channels
    Sampling rate               : 44.1 kHz
    Frame rate                  : 38.281 FPS (1152 SPF)
    Compression mode            : Lossy
    Stream size                 : 91.5 MiB (6%)
    Alignment                   : Aligned on interleaves
    Interleave, duration        : 26  ms (0.65 video frame)
    Interleave, preload duratio : 519  ms
    Writing library             : LAME3.98r
    Encoding settings           : -m j -V 4 -q 2 -lowpass 17.5 --abr 160

  2. 4 کاربر مقابل از saamnc عزیز به خاطر این پست مفید تشکر کرده اند .


  3. #22
    فوق حرفه ای
    تاریخ عضویت
    Apr 2011
    نوشته ها
    33,354
    تشکر
    7,723
    تشکر شده : 19,351
    اینو دارم نمیدونم اگه مال تو بهتره هر وقت شد برام آپ کن .

    General
    Complete name : K:\Compressed\Video\Tangna.mp4
    Format : MPEG-4
    Format profile : Base Media / Version 2
    Codec ID : mp42 (isom/mp42)
    File size : 303 MiB
    Duration : 1 h 40 min
    Overall bit rate mode : Variable
    Overall bit rate : 422 kb/s
    Encoded date : UTC 2013-12-28 00:44:00
    Tagged date : UTC 2013-12-28 00:44:00
    gsst : 0
    gstd : 6030453

    Video
    ID : 1
    Format : AVC
    Format/Info : Advanced Video Codec
    Format profile : Baseline@L1.3
    Format settings : 1 Ref Frames
    Format settings, CABAC : No
    Format settings, ReFrames : 1 frame
    Format settings, GOP : M=1, N=60
    Codec ID : avc1
    Codec ID/Info : Advanced Video Coding
    Duration : 1 h 40 min
    Bit rate : 323 kb/s
    Maximum bit rate : 1 006 kb/s
    Width : 368 pixels
    Height : 272 pixels
    Display aspect ratio : 4:3
    Frame rate mode : Constant
    Frame rate : 25.000 FPS
    Color space : YUV
    Chroma subsampling : 4:2:0
    Bit depth : 8 bits
    Scan type : Progressive
    Bits/(Pixel*Frame) : 0.129
    Stream size : 233 MiB (77%)
    Tagged date : UTC 2013-12-28 00:45:21

    Audio
    ID : 2
    Format : AAC
    Format/Info : Advanced Audio Codec
    Format profile : LC
    Codec ID : mp4a-40-2
    Duration : 1 h 40 min
    Bit rate mode : Variable
    Bit rate : 96.0 kb/s
    Maximum bit rate : 103 kb/s
    Channel(s) : 2 channels
    Channel positions : Front: L R
    Sampling rate : 44.1 kHz
    Frame rate : 43.066 FPS (1024 SPF)
    Compression mode : Lossy
    Stream size : 69.0 MiB (23%)
    Title : IsoMedia File Produced by Google, 5-11-2011
    Encoded date : UTC 2013-12-28 00:44:43
    Tagged date : UTC 2013-12-28 00:45:21



    [فقط کسانی که در سایت عضو شده اند قادر به مشاهده لینک ها هستند عضویت در سایت کمتر از 1 دقیقه ست. برای عضو شدن در سایت کلیک کنید...]

    [فقط کسانی که در سایت عضو شده اند قادر به مشاهده لینک ها هستند عضویت در سایت کمتر از 1 دقیقه ست. برای عضو شدن در سایت کلیک کنید...]


  4. 3 کاربر مقابل از Hadi عزیز به خاطر این پست مفید تشکر کرده اند .


صفحه 3 از 3 نخستنخست 123

اطلاعات موضوع

کاربرانی که در حال مشاهده این موضوع هستند

در حال حاضر 2 کاربر در حال مشاهده این موضوع است. (0 کاربران و 2 مهمان ها)

مجوز های ارسال و ویرایش

  • شما نمیتوانید موضوع جدیدی ارسال کنید
  • شما امکان ارسال پاسخ را ندارید
  • شما نمیتوانید فایل پیوست کنید.
  • شما نمیتوانید پست های خود را ویرایش کنید
  •